<?xml version="1.0" standalone="no"?>
<!DOCTYPE svg PUBLIC "-//W3C//DTD SVG 1.1//EN" "http://www.w3.org/Graphics/SVG/1.1/DTD/svg11.dtd" >
<!--
2013-9-30: Created.
-->
<svg>
<metadata>
Created by iconfont
</metadata>
<defs>

<font id="icon" horiz-adv-x="1024" >
  <font-face
    font-family="icon"
    font-weight="500"
    font-stretch="normal"
    units-per-em="1024"
    ascent="896"
    descent="-128"
  />
    <missing-glyph />
    
    <glyph glyph-name="level" unicode="&#59090;" d="M114.11456 307.97824h136.88832V-33.792H114.11456zM322.19136 414.02368h140.86144v-447.85664H322.19136zM560.98816 550.912h140.86144v-584.74496h-140.9024zM773.03808 801.75104h136.88832v-835.584h-136.88832z"  horiz-adv-x="1024" />

    
    <glyph glyph-name="user" unicode="&#59083;" d="M251.2 524.8c0 144 116.8 260.8 260.8 260.8s260.8-116.8 260.8-260.8S656 264 512 264s-260.8 116.8-260.8 260.8zM731.2 206.4H292.8c-92.8 0-168-75.2-168-168 0-28.8 22.4-51.2 51.2-51.2h670.4c28.8 0 51.2 22.4 51.2 51.2 1.6 92.8-73.6 168-166.4 168z"  horiz-adv-x="1024" />

    
    <glyph glyph-name="right" unicode="&#59084;" d="M299.2 19.2L664 384 299.2 748.8c-11.2 11.2-11.2 30.4 0 41.6 11.2 11.2 30.4 11.2 41.6 0l382.4-382.4c6.4-6.4 9.6-16 8-24 1.6-9.6-1.6-19.2-8-25.6L342.4-24c-11.2-11.2-30.4-11.2-41.6 0-12.8 12.8-12.8 32-1.6 43.2z"  horiz-adv-x="1024" />

    
    <glyph glyph-name="left" unicode="&#59085;" d="M724.8 19.2L360 384 724.8 748.8c11.2 11.2 11.2 30.4 0 41.6-11.2 11.2-30.4 11.2-41.6 0l-384-380.8c-6.4-6.4-9.6-16-8-24-1.6-9.6 1.6-19.2 8-25.6l382.4-382.4c11.2-11.2 30.4-11.2 41.6 0 12.8 11.2 12.8 30.4 1.6 41.6z"  horiz-adv-x="1024" />

    
    <glyph glyph-name="clock" unicode="&#59086;" d="M511.46752 44.11392c-187.06432 0-339.06688 152.00256-339.06688 339.84512 0 187.06432 152.00256 339.80416 339.06688 339.80416 187.10528 0 339.84512-152.7808 339.84512-339.80416 0-187.84256-152.7808-339.84512-339.84512-339.84512z m0 749.7728c-226.5088 0-409.1904-183.41888-409.1904-409.92768 0-224.37888 182.6816-410.0096 409.1904-410.0096 226.54976 0 410.0096 185.63072 410.0096 410.0096 0 226.5088-183.45984 409.92768-410.0096 409.92768zM690.54464 584.9088l-27.0336-5.12-155.648-202.42432-118.41536 58.44992-26.29632-8.02816 8.76544-28.50816 127.13984-60.6208 25.6 1.4336 169.53344 215.57248-3.6864 29.24544zM515.8912 610.5088l39.44448 40.87808-39.44448 41.65632-43.13088-41.65632 43.13088-40.91904zM507.82208 142.04928l-39.44448-41.65632 39.44448-40.91904 43.13088 40.96-43.13088 41.61536zM785.53088 423.40352l-43.13088-41.65632 43.13088-41.65632 39.44448 41.65632-39.44448 41.65632zM233.0624 419.0208l-43.8272-41.65632 43.8272-40.96 38.74816 40.96-38.74816 41.65632z"  horiz-adv-x="1024" />

    
    <glyph glyph-name="category" unicode="&#59087;" d="M870.4 230.23616H153.6a51.2 51.2 0 1 0 0 102.4h716.8a51.2 51.2 0 1 0 0-102.4z m0 204.8H153.6a51.2 51.2 0 1 0 0 102.4h716.8a51.2 51.2 0 1 0 0-102.4z m0 204.8H153.6a51.2 51.2 0 1 0 0 102.4h716.8a51.2 51.2 0 1 0 0-102.4z m-716.8-512h716.8a51.2 51.2 0 1 0 0-102.4H153.6a51.2 51.2 0 1 0 0 102.4z"  horiz-adv-x="1024" />

    
    <glyph glyph-name="cart" unicode="&#59088;" d="M408.7808 216.1152a39.133867 39.133867 0 0 0-38.997333 36.522667 38.9632 38.9632 0 0 0 36.522666 41.480533l386.833067 24.823467h1.416533c0 3.541333 0.708267 7.441067 1.774934 10.990933l93.960533 290.039467H329.710933a38.8864 38.8864 0 0 0-38.997333 38.997333 38.8864 38.8864 0 0 0 38.997333 39.005867h563.771734a77.482667 77.482667 0 0 0 77.294933-77.294934c0-3.899733-0.708267-8.157867-1.774933-12.0576L872.209067 310.784a77.6448 77.6448 0 0 0-22.340267-47.5136c-13.474133-13.474133-32.6144-22.340267-53.179733-22.698667l-385.425067-24.456533h-2.474667zM366.941867 122.504533a70.485333 70.485333 0 0 0-49.6384 20.565334c-11.6992 11.349333-19.1488 27.306667-20.565334 44.680533L263.406933 326.741333l-0.349866 1.416534-57.4464 285.073066c-0.708267 2.8416-0.708267 4.9664-0.708267 7.799467 0 17.373867-6.741333 32.622933-18.082133 43.972267-11.349333 11.349333-26.589867 18.082133-43.963734 18.082133h-50.705066a38.8864 38.8864 0 0 0-38.997334 38.997333 38.8864 38.8864 0 0 0 38.997334 39.005867h50.705066c38.647467 0 73.7536-15.957333 98.926934-41.130667 24.465067-24.465067 40.064-57.796267 41.130666-95.018666l57.088-281.173334 34.030934-142.190933c0-0.349867 0.3584-1.058133 0.3584-1.416533H800.938667a38.8864 38.8864 0 0 0 38.997333-38.997334 38.8864 38.8864 0 0 0-38.997333-39.005866H366.941867v0.349866zM751.300267 6.562133c-31.556267 0-57.437867 25.8816-57.437867 57.437867a57.429333 57.429333 0 0 0 57.437867 57.4464c31.556267 0 57.437867-25.890133 57.437866-57.4464a57.429333 57.429333 0 0 0-57.437866-57.437867zM350.993067 6.562133c-31.5648 0-57.4464 25.8816-57.4464 57.437867s25.8816 57.4464 57.4464 57.4464c31.556267 0 57.429333-25.890133 57.429333-57.4464 0-31.556267-25.873067-57.437867-57.429333-57.437867z"  horiz-adv-x="1024" />

    
    <glyph glyph-name="type" unicode="&#59089;" d="M814.73536 36.00384h-211.92704a45.38368 45.38368 0 0 0-45.38368 45.42464v211.92704c0 25.10848 20.31616 45.42464 45.38368 45.42464h211.92704c25.06752 0 45.42464-20.31616 45.42464-45.4656v-211.88608c0-25.14944-20.35712-45.42464-45.42464-45.42464z m0 393.58464h-211.92704a45.38368 45.38368 0 0 0-45.38368 45.42464V686.94016c0 25.10848 20.31616 45.38368 45.38368 45.38368h211.92704c25.06752 0 45.42464-20.2752 45.42464-45.38368v-211.92704c0-25.14944-20.35712-45.4656-45.42464-45.4656z m-393.54368-393.58464H209.26464a45.38368 45.38368 0 0 0-45.4656 45.42464v211.92704c0 25.10848 20.39808 45.42464 45.4656 45.42464h211.92704c25.06752 0 45.38368-20.31616 45.38368-45.4656v-211.88608c0-25.14944-20.31616-45.42464-45.38368-45.42464z m0 393.58464H209.26464a45.38368 45.38368 0 0 0-45.4656 45.42464V686.94016c0 25.10848 20.39808 45.38368 45.4656 45.38368h211.92704c25.06752 0 45.38368-20.2752 45.38368-45.38368v-211.92704c0-25.14944-20.31616-45.4656-45.38368-45.4656z"  horiz-adv-x="1024" />

    
    <glyph glyph-name="close" unicode="&#59056;" d="M548.992 392.256L885.44 728.672a31.968 31.968 0 1 1-45.248 45.248L503.744 437.504 167.328 773.92a31.968 31.968 0 1 1-45.248-45.248l336.416-336.416L122.08 55.84a31.968 31.968 0 1 1 45.248-45.248l336.416 336.416L840.16 10.56a31.968 31.968 0 1 1 45.248 45.248L548.992 392.256z"  horiz-adv-x="1024" />

    
    <glyph glyph-name="accelerate" unicode="&#59057;" d="M815.6 125.76h-591.2V621.52h24.096v-471.408h44.56v71.392h134.848v-71.392h22.464V329.84h134.864v-179.728h22.08V486.848h134.848v-336.736h73.44v-24.352z m-97.536 336.72h-86.72v-312.368h86.72V462.48z m-156.912-156.992h-86.72v-155.392h86.72v155.392z m-157.344-108.304h-86.672v-47.072h86.672v47.072z m-105.12 77.296l-9.712 22.24c2.08 0.96 206.208 94.288 300.448 293.888l-41.408-12.256-6.784 23.328 82.8 24.56 23.616-81.344-23.136-6.88-12.64 43.616C514.32 372.768 307.68 278.496 298.72 274.48z"  horiz-adv-x="1024" />

    
    <glyph glyph-name="grouth" unicode="&#59058;" d="M217.472 111.68V651.152c0 16.88 26.112 16.848 26.112 0v-509.84c14.592 14.176 29.712 27.904 44.208 41.984l134.72 130.816c51.68 50.176 103.36 100.32 155.008 150.496l128.8 125.04c13.2 12.8 26.384 25.632 39.568 38.448H699.52c-16.816 0-16.8 26.192 0 26.192h77.92c7.056 0 13.04-6.016 13.04-13.104v-76.992c0-16.896-26.112-16.864-26.112 0v44.544c-17.072-17.072-35.2-33.328-52.432-50.08l-134.752-130.832c-51.68-50.144-103.312-100.32-154.976-150.464l-128.8-125.04-30.624-29.744h527.904c16.832 0 16.8-26.192 0-26.192H230.544a13.28 13.28 0 0 0-12.912 11.168 11.52 11.52 0 0 0-0.16 4.096z"  horiz-adv-x="1024" />

    
    <glyph glyph-name="diamond" unicode="&#59059;" d="M390.784 582.992l26.048 87.76h-43.136l-87.744-87.76h104.832z m87.952-346.176l-88.128 307.712h-115.36L478.736 236.8z m149.28 346.176l-26.048 87.76h-145.12l-26.032-87.76H628zM529.376 199.36l98.88 345.184H430.56l98.816-345.184z m138.848 345.184l-88.128-307.76 203.472 307.76h-115.36z m-26.24 126.224l26.048-87.76h104.848l-87.68 87.76h-43.2zM225.92 577.392l126.24 126.176 5.584 5.648h343.36l5.6-5.648 126.24-126.176 11.04-11.12-8.64-13.12L551.2 123.472l-5.776-8.688-15.984-24.176-16.032 24.16-5.776 8.704-284.16 429.712-8.688 13.12 11.12 11.104z"  horiz-adv-x="1024" />

    
    <glyph glyph-name="coinnovate" unicode="&#59060;" d="M574.736 64.672l-225.328 81.824 81.808 225.28 41.536-88.896 259.36 121.232a34.928 34.928 0 0 0 46.176-15.984l34.88-68.976c4.96-9.776 5.696-20.88 2.128-31.2a39.68 39.68 0 0 0-20.944-23.248l-256.976-120.128 37.36-79.904z m-140.768 244.528l-53.872-148.4 148.4-53.824-22.992 49.2 278.72 130.24a16.128 16.128 0 0 1 7.584 21.92l-34.896 68.992a11.04 11.04 0 0 1-14.608 5.072l-281.12-131.36-27.2 58.16z m-139.6 34.336a31.84 31.84 0 0 0-28.432 17.6l-39.984 79.12a31.872 31.872 0 0 0-1.696 24.944c2.864 8.304 8.8 14.88 16.768 18.592l264.48 123.584-37.344 79.952 225.28-81.824-81.76-225.28-41.552 88.896-262.128-122.512a32.256 32.256 0 0 0-13.632-3.072zM514.4 645.072l22.992-49.248-286.24-133.76a8.112 8.112 0 0 1-3.776-11.008l39.968-79.088a8 8 0 0 1 10.512-3.648l283.872 132.64 27.2-58.16 53.824 148.4-148.352 53.872z"  horiz-adv-x="1024" />

    
    <glyph glyph-name="market" unicode="&#59061;" d="M729.296 107.68c-6.272 0-13.056 2.16-19.632 7.216-16.864 22.304-1.44 46.816 19.632 46.816 6.288 0 13.056-2.176 19.648-7.232 16.832-22.272 1.44-46.8-19.648-46.8z m-270.896 0c-6.272 0-13.056 2.16-19.632 7.216-16.864 22.304-1.456 46.816 19.616 46.816 6.288 0 13.056-2.176 19.632-7.232 16.864-22.272 1.456-46.8-19.616-46.8z m313.712 76.816H430.56c-26.432 0-47.936 21.664-47.936 48.304v24.288h-0.064V350.88H120.976v26.608h261.6v43.744H200.768v26.64H382.56v43.712h-90.368V518.24h90.368v62.208c-8.368 11.12-29.008 34.048-56.688 34.048h-1.248l-0.608 26.576 1.92 0.016c35.76 0 61.504-24.528 74.32-40.192h472.112c13.152 0 25.152-6.128 32.912-16.768 7.792-10.64 10.016-24 6.144-36.64l-75.84-246.672a61.408 61.408 0 0 0-58.88-43.728H409.024v-24.288c0-11.936 9.648-21.68 21.52-21.68h341.552v-26.624z m100.256 389.76H408.992v-290.56h367.696c15.536 0 29.072 10.032 33.664 24.976l75.856 246.704a14.624 14.624 0 0 1-2.208 12.976 14.24 14.24 0 0 1-11.632 5.92z"  horiz-adv-x="1024" />

    
    <glyph glyph-name="commercialise" unicode="&#59062;" d="M541.28 188.88c0.8-4.352 1.232-8.8 1.232-13.376a75.616 75.616 0 0 0-75.456-75.584 75.616 75.616 0 0 0-75.52 75.584c0 4.576 0.48 9.024 1.28 13.376h-43.52a53.088 53.088 0 0 0-52.96 53.072V593.504a58.576 58.576 0 0 0 58.448 58.576h354.608c27.328 0 49.6-22.32 49.6-49.68v-64.736h116.016c29.6 0 56.64-18.56 67.28-46.192l43.232-112.256c4.288-11.2 6.48-22.928 6.48-34.928v-113.12a42.272 42.272 0 0 0-42.208-42.24h-18.688c0.848-4.368 1.28-8.848 1.28-13.44a75.616 75.616 0 0 0-75.456-75.568 75.632 75.632 0 0 0-75.52 75.584c0 4.576 0.48 9.056 1.248 13.424h-23.68v-0.048H541.28z m315.648 30.4a43.776 43.776 0 0 1-43.728-43.776 43.776 43.776 0 0 1 43.728-43.728 43.776 43.776 0 0 1 43.68 43.728 43.792 43.792 0 0 1-43.68 43.76z m-389.872 0a43.792 43.792 0 0 1-43.728-43.776 43.792 43.792 0 0 1 43.728-43.728 43.792 43.792 0 0 1 43.696 43.728 43.792 43.792 0 0 1-43.696 43.76z m-208.752 0.8H48v31.84h210.304v-31.84z m451.088 400.128H354.784c-14.736 0-26.672-11.952-26.672-26.704v-351.552a21.28 21.28 0 0 1 21.2-21.264h57.36a75.408 75.408 0 0 0 60.384 30.4c24.672 0 46.576-12 60.368-30.4h199.744V537.664h0.032V602.4c0 9.84-7.968 17.808-17.808 17.808z m250.832-280.88H758.992v-118.592h37.6a75.296 75.296 0 0 0 60.32 30.352c24.64 0 46.512-12 60.304-30.352h32.576a10.448 10.448 0 0 1 10.432 10.432v108.16z m-701.92-26.768H102.56v31.808h155.744v-31.808z m616.704 193.28h-116.016v-134.688h195.552l-41.92 108.864a40.528 40.528 0 0 1-37.6 25.84z m-616.864-109.664L156.64 397.28l0.368 31.808 101.44-1.088-0.288-31.824z"  horiz-adv-x="1024" />

    
    <glyph glyph-name="usercard" unicode="&#59063;" d="M667.104 48.88H372.896c-52.944 0-96.032 43.008-96.032 95.872V623.248c0 52.864 43.088 95.872 96.032 95.872h294.208c52.944 0 96.032-43.008 96.032-95.872v-478.496c0-52.864-43.088-95.872-96.032-95.872z m0 636.56H372.896a62.304 62.304 0 0 1-62.272-62.192v-478.496a62.288 62.288 0 0 1 62.272-62.176h294.208a62.288 62.288 0 0 1 62.272 62.176V623.248a62.304 62.304 0 0 1-62.272 62.192z m-19.488-552.4H392.384a8.4 8.4 0 1 0 0 16.8h255.232a8.384 8.384 0 1 0 0-16.8z m0 33.6H392.384a8.4 8.4 0 1 0 0 16.816h255.232a8.416 8.416 0 0 0 0-16.8z m-28.048 47.616H420.432a11.2 11.2 0 1 0 0 22.4h199.136c6.208 0 11.232-5.024 11.232-11.2 0-6.192-5.024-11.2-11.232-11.2z m-11.2 59.728c-6.288 52.56-37.248 111.376-88.368 111.376s-82.08-58.816-88.352-111.36h176.704zM575.248 457.76A55.232 55.232 0 0 0 520 402.56a55.2 55.2 0 0 0-55.264 55.168 55.2 55.2 0 0 0 55.264 55.168 55.2 55.2 0 0 0 55.264-55.168z m33.552 143.856H431.2a22.416 22.416 0 1 0 0 44.8H608.8c12.4 0 22.448-10.032 22.448-22.4 0-12.368-10.048-22.4-22.448-22.4z"  horiz-adv-x="1024" />

    
    <glyph glyph-name="menu" unicode="&#59064;" d="M64.021 42.706c0 11.769 9.455 21.31 21.263 21.31h853.43c11.743 0 21.263-9.443 21.263-21.31v-21.377c0-11.769-9.456-21.31-21.263-21.31H85.285c-11.743 0-21.263 9.443-21.263 21.31v21.377z m0 351.982c0 11.77 9.455 21.31 21.263 21.31h853.43c11.743 0 21.263-9.442 21.263-21.31v-21.376c0-11.77-9.456-21.31-21.263-21.31H85.285c-11.743 0-21.263 9.442-21.263 21.31v21.376z m0 351.984c0 11.769 9.455 21.31 21.263 21.31h853.43c11.743 0 21.263-9.443 21.263-21.31v-21.377c0-11.769-9.456-21.31-21.263-21.31H85.285c-11.743 0-21.263 9.443-21.263 21.31v21.377z"  horiz-adv-x="1024" />

    
    <glyph glyph-name="reward" unicode="&#59065;" d="M520.384 83.424l-1.168 0.016a20.64 20.64 0 0 0-5.44 1.04c-53.04 11.92-260.96 101.024-261.168 300.48L243.808 560c-6.576 33.84 17.872 66.144 58.512 77.04l1.184 0.224 169.168 27.52a295.264 295.264 0 0 0 94.688 0l170.32-27.744c40.64-10.896 65.088-43.2 58.512-77.04l-8.784-175.04C787.2 185.76 579.808 96.608 526.432 84.528a19.2 19.2 0 0 0-6.048-1.104z m-12.16 560.912c-10.64-0.464-21.232-1.52-31.68-3.216L308 613.744c-27.952-7.728-44.944-28.576-40.432-49.776l0.256-1.888 8.864-176.8c0-171.904 174.048-255.968 231.52-274.352v140.24h-82.448v23.968h82.448v109.744a79.76 79.76 0 0 0-55.456 23.312 78.96 78.96 0 0 0-23.44 56.384v1.312c0 41.456 33.872 75.2 75.52 75.2h3.376V644.32z m24.08-393.168v-140.096c57.968 18.736 231.04 102.832 231.04 274.208v0.592l8.88 177.152 0.208 0.944c4.48 21.2-12.48 42.048-40.432 49.76L563.472 641.12a268.704 268.704 0 0 1-31.168 3.2v-103.232h80.688v-23.968h-80.688v-108.304h11.84c44.608 0 80.896-36.128 80.896-80.56v-1.312c0-41.776-34.128-75.776-76.096-75.776h-16.64z m0 133.664v-109.696h16.64a51.952 51.952 0 0 1 52 51.808v1.312a56.752 56.752 0 0 1-56.8 56.576h-11.84z m-27.44 132.288a51.392 51.392 0 0 1-51.44-51.232v-1.312c0-14.912 5.808-28.912 16.384-39.424 10.288-10.256 23.904-15.984 38.416-16.288V517.12h-3.36z"  horiz-adv-x="1024" />

    
    <glyph glyph-name="medal" unicode="&#59066;" d="M591.376 9.152a14.288 14.288 0 0 0-10.976 5.168l-68.752 82.944-68.736-82.944c-3.888-4.64-10.24-6.4-15.872-4.272a14.48 14.48 0 0 0-9.408 13.616V308.096a14.4 14.4 0 0 0 14.32 14.48H465.6c2.48 0 4.976-0.64 7.152-1.92L512 297.664l39.264 22.992c2.176 1.28 4.656 1.92 7.136 1.92h32.976a14.4 14.4 0 0 0 14.304-14.48v-284.432a14.448 14.448 0 0 0-14.304-14.512zM461.76 293.584h-15.52v-230.144l54.48 65.648a14.128 14.128 0 0 0 21.872 0l54.448-65.648V293.6h-14.8l-43.072-25.184a14.24 14.24 0 0 0-14.336 0l-43.072 25.184z m102.4 43.728l-41.44-24.24a21.472 21.472 0 0 0-21.44 0l-41.44 24.24h-47.84c-7.664 0-14.752 4.128-18.56 10.88l-23.936 41.952-41.44 24.224a21.824 21.824 0 0 0-10.736 18.832v48.464l-23.904 41.952c-3.84 6.736-3.84 15.04-0.032 21.728l23.936 42v48.448c0 7.776 4.096 14.944 10.72 18.848l41.44 24.224 23.952 41.952c3.808 6.736 10.896 10.88 18.56 10.88h47.84l41.44 24.24a21.28 21.28 0 0 0 21.44 0l41.44-24.24h47.84c7.68 0 14.752-4.144 18.592-10.88l23.936-41.952 41.408-24.224c6.64-3.904 10.736-11.072 10.736-18.848v-48.448l23.936-42c3.808-6.704 3.808-14.992-0.032-21.728l-23.904-41.952v-48.464c0-7.76-4.08-14.944-10.72-18.832l-41.424-24.224-23.936-41.968c-3.84-6.72-10.912-10.88-18.592-10.88h-47.84z m-98.56 43.456c3.76 0 7.44-1.008 10.72-2.912L512 357.008l35.68 20.848c3.28 1.904 6.96 2.912 10.72 2.912h41.216l20.592 36.16c1.872 3.296 4.608 6.032 7.872 7.936l35.68 20.88v41.728c0 3.84 0.992 7.584 2.88 10.88l20.576 36.144-20.592 36.16a21.904 21.904 0 0 0-2.88 10.88v41.696l-35.664 20.912a21.568 21.568 0 0 0-7.872 7.92l-20.592 36.16H558.4c-3.76 0-7.44 0.992-10.72 2.88L512 712.032l-35.68-20.864a20.992 20.992 0 0 0-10.72-2.944h-41.216l-20.592-36.144a21.92 21.92 0 0 0-7.872-7.952l-35.68-20.88v-41.696c0-3.84-0.992-7.6-2.88-10.88l-20.576-36.16 20.592-36.16c1.872-3.28 2.88-7.04 2.88-10.88v-41.68l35.664-20.912c3.264-1.92 6-4.64 7.872-7.92l20.592-36.16H465.6z m46.048 19.056c-73.28 0-132.912 60.416-132.912 134.672 0 74.272 59.616 134.656 132.912 134.656 73.328 0 132.928-60.384 132.928-134.656 0-74.24-59.6-134.672-132.928-134.672z m0 240.336c-57.504 0-104.32-47.392-104.32-105.664s46.816-105.648 104.32-105.648c57.52 0 104.32 47.376 104.32 105.648s-46.8 105.664-104.32 105.664z"  horiz-adv-x="1024" />

    
    <glyph glyph-name="learn" unicode="&#59067;" d="M540.048 89.632c-19.744 0-35.84 15.872-35.84 35.376 0 15.168 9.76 28.08 23.376 33.104v17.6H228.832v419.52h-3.392c-19.552 0-35.456 15.072-35.456 33.552 0 18.512 15.904 33.6 35.456 33.6h606.656c19.584 0 35.488-15.088 35.488-33.6 0-18.48-15.904-33.552-35.488-33.552h-9.024v-419.52H551.888v-17.376a35.408 35.408 0 0 0 23.984-33.328c0-19.52-16.08-35.376-35.84-35.376z m0 46.736a11.456 11.456 0 0 1-11.52-11.36c0-6.272 5.152-11.392 11.52-11.392 6.368 0 11.552 5.12 11.552 11.392a11.472 11.472 0 0 1-11.552 11.36zM253.12 595.248V199.68h545.648V595.232H253.12z m-27.68 43.136c-6.192 0-11.2-4.32-11.2-9.6 0-5.28 5.008-9.584 11.2-9.584h606.64c6.176 0 11.2 4.32 11.2 9.6 0 5.28-5.024 9.584-11.2 9.584H225.44z"  horiz-adv-x="1024" />

    
    <glyph glyph-name="share" unicode="&#59068;" d="M681.12 51.952c-42.24 0-76.64 34.944-76.64 77.92 0 13.232 3.28 25.648 9.008 36.544L385.6 343.856a75.68 75.68 0 0 0-52.368-21.072c-42.24 0-76.608 34.944-76.608 77.92s34.368 77.92 76.608 77.92c21.536 0 41.04-9.088 54.96-23.68l221.712 156.048a78.4 78.4 0 0 0-5.392 28.624c0 42.976 34.384 77.92 76.64 77.92 42.224 0 76.592-34.944 76.592-77.92s-34.368-77.952-76.608-77.952a76.016 76.016 0 0 0-58.256 27.408l-220.368-155.12a78.768 78.768 0 0 0-1.632-69.824L628.784 186.72a75.68 75.68 0 0 0 52.336 21.104c42.24 0 76.608-34.96 76.608-77.952 0-42.976-34.368-77.92-76.608-77.92z m0 130.304c-28.4 0-51.472-23.472-51.472-52.384 0-28.88 23.072-52.368 51.472-52.368 28.4 0 51.472 23.488 51.472 52.368 0 28.912-23.072 52.384-51.472 52.384z m0.24-73.824c-11.2 0-20.272 9.216-20.272 20.592 0 11.392 9.072 20.608 20.272 20.608 11.184 0 20.224-9.216 20.224-20.608 0-11.36-9.04-20.592-20.224-20.592z m-348.16 344.672c-28.384 0-51.472-23.52-51.472-52.384 0-28.896 23.088-52.368 51.488-52.368 28.384 0 51.488 23.472 51.488 52.368 0 28.88-23.104 52.384-51.488 52.384z m-0.192-72.992a20.432 20.432 0 0 0-20.208 20.624c0 11.36 9.072 20.576 20.208 20.576 11.2 0 20.272-9.216 20.272-20.576 0-11.392-9.072-20.624-20.272-20.624z m348.112 311.84c-28.4 0-51.472-23.456-51.472-52.336 0-28.896 23.072-52.368 51.472-52.368 28.4 0 51.472 23.472 51.472 52.368 0 28.88-23.072 52.352-51.472 52.352z m-0.608-72.512a20.432 20.432 0 0 0-20.24 20.608c0 11.36 9.056 20.592 20.24 20.592s20.256-9.216 20.256-20.592c0-11.392-9.072-20.608-20.256-20.608z"  horiz-adv-x="1024" />

    
    <glyph glyph-name="resources" unicode="&#59069;" d="M765.808 467.52l-4.4-2.64 86.336-50.4 26.736-15.632-26.72-15.632-75.936-44.368v-136.96l-10.128-4.992-263.2-130.48-7.648-3.68-7.632 3.52-204.576 95.04-10.544 4.928v127.728l-127.84 74.64-27.536 16.096 27.888 15.392 102.672 56.608-91.728 53.552-26.736 15.632 26.784 15.68L390.56 681.12l8.848 5.136 8.912-5.136 109.44-63.936 120.784 70.608 8.912 5.152 8.912-5.152 215.808-126.08 26.72-15.584-26.56-15.68-106.528-62.928zM508.56 301.856v-190.24L736 224.288v93.664l-118.64-69.312-8.912-5.152-8.912 5.152-90.976 53.216zM196.16 525.92l83.456-48.704 200.704 120.16-80.912 47.248-203.248-118.72z m263.44-195.568l-179.68 104.96-0.416 0.224-93.872-51.744 182.768-106.768 91.2 53.328z m13.136-34.016l-95.488-55.728-8.848-5.216-8.912 5.216-55.52 32.368v-83.648l168.768-78.496V296.352z m76.56 297.6l180.8-105.6 97.632 57.664-180.272 105.296-98.16-57.36z m-53.92-242.752l196.064 114.496-177.968 107.296-198.08-116.656L495.36 351.2z m35.872-21.008l77.2-45.072 194.736 113.728-75.28 43.968-196.656-112.64z"  horiz-adv-x="1024" />

    
    <glyph glyph-name="network" unicode="&#59070;" d="M503.36 73.12c-166.64 0-302.24 135.584-302.24 302.224s135.6 302.24 302.24 302.24c166.624 0 302.24-135.6 302.24-302.24 0-166.64-135.616-302.224-302.24-302.224z m-108.432 146.32c20.064-65.296 54.176-113.568 101.648-119.712v119.712h-101.648z m125.568 0v-119.472c43.232 6.4 70.448 46.896 86 81.36 5.312 11.792 10.016 24.56 14.192 38.112H520.48z m-247.584 0a279.424 279.424 0 0 1 158.32-112.896c-27.552 26.048-47.824 66.24-61.232 112.896h-97.088z m372.56 0c-12.8-44.512-31.824-83.136-57.472-109.2a279.648 279.648 0 0 1 145.792 109.2h-88.32z m20.032 142.352c-0.704-40.16-5.248-80.832-13.872-118.416h96.688a276.192 276.192 0 0 1 33.008 118.4h-115.84z m-145.008 0v-118.416h106.768c8.656 35.856 13.584 76.16 14.304 118.4H520.48z m-146.608 0c0.752-40.944 5.6-81.68 14.512-118.416h108.176v118.4h-122.688z m-148.512 0c2.08-42.688 13.808-82.88 33.008-118.416h105.456c-8.608 37.584-13.152 78.24-13.888 118.4h-124.576z m425.344 144.752c9.072-38.208 13.92-79.76 14.784-120.832h115.92a276.48 276.48 0 0 1-32.688 120.832H650.72z m-130.24 0v-120.832h121.088c-0.896 41.888-6.08 83.52-15.488 120.832h-105.6z m-131.088 0c-9.408-37.328-14.592-78.944-15.488-120.832h122.672V506.56h-107.184z m-131.424 0a276.48 276.48 0 0 1-32.704-120.832h124.72c0.816 42.912 5.84 83.952 14.608 120.832h-106.624z m322.56 136.208c28.656-25.152 49.76-65.296 63.776-112.288h90.032a279.456 279.456 0 0 1-153.808 112.288z m-60.032 3.216v-115.52h98.8c-20 62.56-53.136 108.672-98.8 115.52z m-23.92 0.208c-46.496-6.016-80.176-52.432-100.4-115.712h100.4v115.712z m-57.744-0.112a279.12 279.12 0 0 1-166.448-115.6h98.592c4.704 15.664 10.08 30.4 16.224 43.952 14.176 31.424 31.568 55.472 51.632 71.648z"  horiz-adv-x="1024" />

    
    <glyph glyph-name="handshake" unicode="&#59071;" d="M254.08 205.312a49.648 49.648 0 0 0-40.448 14.56 50.928 50.928 0 0 0 0 71.504l46.832 47.216a49.6 49.6 0 0 0 35.472 14.816c13.36 0 25.968-5.264 35.44-14.816 11.04-11.12 15.84-26.192 14.416-40.736 1.648 0.16 3.312 0.24 4.976 0.24h0.32c13.28-0.096 25.744-5.344 35.136-14.816 11.04-11.12 15.84-26.208 14.432-40.768a49.52 49.52 0 0 0 40.432-14.56 50.448 50.448 0 0 0 14.448-40.736 49.552 49.552 0 0 0 40.4-14.56c9.504-9.568 14.704-22.256 14.704-35.76 0-13.52-5.2-26.208-14.704-35.76L449.12 53.92a49.584 49.584 0 0 0-35.424-14.816 49.632 49.632 0 0 0-35.472 14.816 50.432 50.432 0 0 0-14.432 40.736c-1.648-0.16-3.296-0.224-4.96-0.224a49.472 49.472 0 0 0-35.472 14.816 50.352 50.352 0 0 0-14.448 40.72c-1.536-0.16-3.072-0.224-4.64-0.24h-0.32a49.6 49.6 0 0 0-35.44 14.816 50.72 50.72 0 0 0-14.416 40.688v0.08z m206.432-40.752a27.2 27.2 0 0 1-19.424-8.112l-46.816-47.2a27.68 27.68 0 0 1-8.048-19.568c0-7.408 2.864-14.352 8.048-19.568 10.352-10.464 28.432-10.48 38.8 0l46.832 47.2a27.68 27.68 0 0 1 8.032 19.584c0 7.36-2.88 14.32-8.032 19.552a27.152 27.152 0 0 1-19.392 8.112z m199.792 82.496l-109.712 110.624a11.52 11.52 0 0 0 0 16.208 11.296 11.296 0 0 0 16.064 0l109.712-110.64a26.352 26.352 0 0 1 37.456 0 26.88 26.88 0 0 1 0 37.76 11.52 11.52 0 0 0 0 16.208 11.296 11.296 0 0 0 16.064 0 49.952 49.952 0 0 0 0-70.16 48.832 48.832 0 0 0-39.36-14.288 49.84 49.84 0 0 0-14.16-39.68 48.848 48.848 0 0 0-39.312-14.304 49.424 49.424 0 0 0-14.24-39.648 48.624 48.624 0 0 0-39.328-14.336c1.296-14.176-3.44-28.8-14.16-39.648a48.848 48.848 0 0 0-34.8-14.496 48.848 48.848 0 0 0-34.784 14.496 11.52 11.52 0 0 0 0 16.192 11.296 11.296 0 0 0 16.064 0c10.336-10.4 27.12-10.4 37.44 0a26.912 26.912 0 0 1 0 37.792l-109.68 110.624a11.472 11.472 0 0 0 0 16.176 11.296 11.296 0 0 0 16.048 0l109.712-110.624c10-10.08 27.456-10.08 37.44 0 5.04 5.04 7.792 11.744 7.792 18.88 0 7.152-2.752 13.856-7.776 18.896l-109.712 110.624a11.536 11.536 0 0 0 0 16.208 11.296 11.296 0 0 0 16.048 0l109.712-110.656a26.4 26.4 0 0 1 37.472 0 26.944 26.944 0 0 1 0 37.792z m-254.672-27.2c-7.312 0-14.24-2.864-19.408-8.08l-46.816-47.232a27.616 27.616 0 0 1-8.048-19.568c0-7.376 2.88-14.32 8.048-19.552 10.368-10.464 28.432-10.464 38.8 0l46.832 47.216c5.184 5.232 8.048 12.176 8.048 19.552 0 7.408-2.864 14.352-8.048 19.584a27.2 27.2 0 0 1-19.408 8.08zM350.768 275.2c-7.312 0-14.208-2.88-19.392-8.112l-46.832-47.232a27.856 27.856 0 0 1 0-39.12c5.184-5.232 12.288-7.84 19.392-7.84h0.336a27.136 27.136 0 0 1 19.072 7.84l46.832 47.216a27.856 27.856 0 0 1 0 39.136 27.072 27.072 0 0 1-19.04 8.112h-0.368z m-54.832 55.312c-7.36 0-14.24-2.88-19.408-8.112l-46.832-47.216a27.856 27.856 0 0 1 0-39.136c10.368-10.448 28.432-10.448 38.8 0l46.832 47.232a27.856 27.856 0 0 1 0 39.12 27.12 27.12 0 0 1-19.392 8.112z m393.344-12.064a49.52 49.52 0 0 0-35.424 14.816L461.312 527.392l-18.992 21.44-2.08-2.08v-78.272c0-32.56-25.376-59.84-56.544-60.8h-1.792c-15.584 0-30.24 6.096-41.248 17.216a58.704 58.704 0 0 0-17.072 41.6v80.896c0 15.088 5.664 29.44 16 40.448 0.576 0.848 1.264 1.696 2.064 2.48l23.312 23.52a185.6 185.6 0 0 0 132.672 55.424c8.784 0 17.632-0.624 26.304-1.872a188.24 188.24 0 0 0 106.416-53.552l150.88-152.128c9.488-9.552 14.688-22.24 14.688-35.76 0-13.504-5.2-26.192-14.704-35.76l-56.464-56.928a49.552 49.552 0 0 0-35.472-14.816z m-436.432 19.584a11.312 11.312 0 0 0-8.032 3.344L135.12 452a11.504 11.504 0 0 0 0 16.176 11.232 11.232 0 0 0 16.048 0l109.712-110.608a11.52 11.52 0 0 0 0-16.192 11.248 11.248 0 0 0-8.032-3.36z m190.4 244.112l34.56-39.04L669.888 349.44c10.368-10.448 28.464-10.448 38.8 0l56.48 56.96c5.184 5.216 8.032 12.16 8.032 19.552 0 7.376-2.848 14.336-8.016 19.568l-150.88 152.128a165.44 165.44 0 0 1-93.536 47.072c-50.672 7.216-103.6-10.608-139.76-47.072l-23.312-23.52c-0.48-0.656-0.848-1.136-1.248-1.632a36.352 36.352 0 0 1-10.176-25.104v-80.88c0-9.6 3.696-18.64 10.432-25.44 6.72-6.752 15.68-10.496 25.2-10.496h1.12c19.04 0.576 34.512 17.584 34.512 37.904v78.912a33.6 33.6 0 0 1-0.16 2.976l-0.416 5.28 26.288 26.496z m382.72-123.392a49.696 49.696 0 0 0-35.488 14.8l-143.328 144.528a50.96 50.96 0 0 0 0 71.52l16.128 16.24a49.52 49.52 0 0 0 35.456 14.8c13.376 0 25.984-5.248 35.456-14.8l143.328-144.544c9.472-9.552 14.688-22.24 14.688-35.744 0-13.504-5.216-26.208-14.688-35.76l-16.112-16.24a49.6 49.6 0 0 0-35.456-14.8z"  horiz-adv-x="1024" />

    
    <glyph glyph-name="teamwork" unicode="&#59072;" d="M203.808 67.824c9.328 78.368 55.392 166.048 131.504 166.048 49.776 0 86.704-37.504 108.912-85.376 18.736 16.672 41.264 26.96 67.328 26.96 26.352 0 49.088-10.528 67.968-27.504 22.176 48.128 59.184 85.92 109.168 85.92 76.096 0 122.176-87.68 131.504-166.048H629.488c6.704-19.072 11.28-39.04 13.568-58.416H380.048c2.304 19.376 6.88 39.344 13.584 58.416H203.808z m573.792 34.88c-15.008 51.536-46.88 96.304-88.912 96.304-37.792 0-67.312-36.208-83.824-80.944 3.28-4.928 6.384-10.048 9.264-15.36H777.6z m-368.608 0c3.04 5.616 6.336 11.024 9.824 16.208-16.56 44.352-45.936 80.096-83.504 80.096-42.032 0-73.904-44.768-88.912-96.304h162.592z m102.56 91.44a82.288 82.288 0 1 1 0 164.528 82.288 82.288 0 0 1 0-164.528z m-176.24 58.416a82.272 82.272 0 1 1 0 164.544 82.272 82.272 0 0 1 0-164.544z m353.376 0a82.288 82.288 0 1 1-0.016 164.56 82.288 82.288 0 0 1 0.016-164.56zM335.312 382.24a47.456 47.456 0 0 0 47.408-47.392 47.456 47.456 0 0 0-47.408-47.408 47.456 47.456 0 0 0-47.392 47.408 47.456 47.456 0 0 0 47.392 47.392z m353.376 0a47.456 47.456 0 0 0 47.392-47.392 47.456 47.456 0 0 0-47.392-47.408 47.456 47.456 0 0 0-47.408 47.408 47.456 47.456 0 0 0 47.408 47.392zM590.944 758.592c-74.688 0-137.472-38.256-155.44-90.064-1.648 0.048-3.264 0.16-4.912 0.16-87.216 0-158.16-54.304-158.16-121.072s70.944-121.072 158.16-121.072c8.208 0 16.592 0.496 24.96 1.52a228.416 228.416 0 0 1 73.824-24.352 14.912 14.912 0 0 1 15.376 7.664 14.848 14.848 0 0 1-1.776 16.976 238.88 238.88 0 0 0-17.152 22.528c29.136 16.768 49.392 40.432 58.112 67.04 2.336-0.08 4.656-0.256 7.008-0.256 88.72 0 160.624 53.952 160.624 120.48s-71.904 120.448-160.624 120.448z m-83.456-295.248a9.84 9.84 0 0 1-4.048-13.92c5.712-9.376 11.552-17.536 16.656-24.112a214.4 214.4 0 0 0-57.952 21.504 10.016 10.016 0 0 1-6.048 1.12c-8.544-1.184-17.12-1.76-25.504-1.76-76.384 0-138.528 45.504-138.528 101.44s62.144 101.44 138.528 101.44l0.432-0.016a90.96 90.96 0 0 1-0.688-10.896c0-42.176 28.912-79.248 72.656-100.784a270.496 270.496 0 0 0-25.648-35.28c-3.424-3.968-0.048-9.968 5.136-9.216a238.4 238.4 0 0 1 79.424 26.816c0.56-0.08 1.136-0.096 1.696-0.176-8.96-22.624-28.528-42.592-56.112-56.16z m157.072 151.536a23.36 23.36 0 1 0 0.032 46.752 23.36 23.36 0 0 0-0.032-46.752z m-75.072 0a23.392 23.392 0 1 0 0.016 46.768 23.392 23.392 0 0 0-0.016-46.768z m-75.088 46.752a23.36 23.36 0 1 0 0-46.736 23.36 23.36 0 0 0 0 46.736z"  horiz-adv-x="1024" />

    
    <glyph glyph-name="team" unicode="&#59073;" d="M424.64 616.832c1.104 1.488 2.24 2.96 3.424 4.416 32.704 40.16 90.672 56.112 139.328 37.776a126.768 126.768 0 0 0 56.752-42.32l0.016-0.016c24.864 10.624 53.568 12.176 79.44 2.672 8.672-3.2 16.784-7.392 24.144-12.4l0.32 0.16c1.616 0.816 3.28 1.552 4.944 2.272 23.328 9.968 50.32 11.472 74.528 2.528 40.08-14.72 66.064-51.488 67.92-93.6a30.64 30.64 0 0 0 0-5.12c-1.488-31.872-17.232-61.6-42.128-80.064l-0.304-0.224a107.264 107.264 0 0 0 32.896-27.84c27.968-35.488 24.288-77.472 24.288-119.68v-105.312c0-5.536-2.128-9.616-5.312-12.384-0.032 0-0.032-0.032-0.032-0.032a15.84 15.84 0 0 0-11.744-4.656h-81.488v-3.68c0-5.872-2.272-10.24-5.664-13.184-0.032 0-0.032-0.032-0.032-0.032-2.88-2.992-7.056-4.96-12.48-4.96h-105.12v-21.904c0-5.856-2.272-10.24-5.664-13.152l-0.016-0.048a16.88 16.88 0 0 0-12.544-4.992H398.976a18.464 18.464 0 0 0-18.208 18.192v21.888H275.68c-5.44 0-9.6 1.968-12.496 4.976 0 0 0 0.032-0.032 0.032-3.392 2.96-5.664 7.296-5.664 13.184v3.68H172.48a15.856 15.856 0 0 0-11.76 4.656l-0.016 0.032c-3.2 2.768-5.36 6.848-5.36 12.384v105.312c0 42.208-3.632 84.192 24.304 119.68a107.808 107.808 0 0 0 32.928 27.84l-0.304 0.224c-24.896 18.464-40.672 48.192-42.16 80.064a31.888 31.888 0 0 0 0 5.12c1.872 42.112 27.856 78.88 67.92 93.6 24.24 8.944 51.2 7.44 74.56-2.528 1.76-0.768 3.52-1.552 5.248-2.432 0.672-0.32 1.344-0.672 2.032-1.024a110.08 110.08 0 0 0 25.632 13.424c25.728 9.472 54.32 7.952 79.12-2.528z m207.248-479.408v119.456c0 44.688 5.856 92.24-27.552 127.536l-0.448 0.48a98.208 98.208 0 0 1-12.08 10.704 101.36 101.36 0 0 1-17.472 10.512 111.296 111.296 0 0 1-34.144 9.904l20.544-156.96-36.192-35.584-36.176 35.568 22.688 157.008c-33.04-4-64.32-21.792-81.28-52.16-20.16-36.16-12.576-87.424-12.576-127.232v-99.232h214.688z m31.552 271.088a96.496 96.496 0 0 1-27.408-5.184c0.848-0.976 1.648-1.984 2.432-2.976 34.768-44.144 29.872-96.64 29.872-149.088v-73.76h86.88v98.24c0 36.368 5.2 76.272-21.712 105.328a81.888 81.888 0 0 1-15.792 13.216 82.688 82.688 0 0 1-15.664 8 91.072 91.072 0 0 1-13.168 8.144c-0.192-0.064-0.432-0.096-0.64-0.128-5.28-0.992-10.592-1.552-15.904-1.776h-0.32c-2.704-0.096-5.376-0.096-8.064 0h-0.08l-0.432-0.016z m-278.24 0.032c-2.72-0.128-5.408-0.128-8.16 0h-0.288c-22.672-1.056-45.008-10.064-61.168-27.488-26.896-29.008-21.712-68.96-21.712-105.28v-98.256h86.896v94.128c0 14.448-0.208 28.864 0 43.344 0.464 32.368 11.712 63.776 32.24 88.368a96.224 96.224 0 0 1-27.808 5.184z m385.152 5.472h-0.048a89.632 89.632 0 0 1-15.872-2.016l-0.48-0.112c4.224-3.936 8.192-8.224 11.84-12.88 29.744-37.792 25.84-82.528 25.84-127.44v-74.432H856v92.24c0 34.08 4.896 71.584-20.352 98.848-15.168 16.352-36.128 24.768-57.44 25.792h-0.256a69.44 69.44 0 0 0-7.616 0z m-495.568 0a64.912 64.912 0 0 0-7.136 0h-0.768c-21.152-1.152-41.888-9.584-56.96-25.792-25.232-27.264-20.352-64.752-20.352-98.848v-92.24h67.904v74.416c0 44.928-3.904 89.648 25.84 127.472a112.32 112.32 0 0 0 11.136 12.208 90.384 90.384 0 0 1-19.168 2.8h-0.032l-0.48-0.032z m397.52 30.72a70.256 70.256 0 0 1 22.672 5.44 72.352 72.352 0 0 1 27.568 20.736 74.928 74.928 0 0 1 17.072 46.032 74.976 74.976 0 0 1-16.048 44.88 79.44 79.44 0 0 1-6.72 7.392 71.296 71.296 0 0 1-75.12 15.408v-0.016c4.784-12.752 7.568-26.448 8.064-40.608 0.08-0.8 0.08-1.648 0.112-2.48-0.032-0.848-0.032-1.68-0.112-2.528 0.048 0 0-0.032 0-0.032a130.464 130.464 0 0 0-29.216-77.216l-0.016-0.016h0.016a72.576 72.576 0 0 1 41.328-17.008h0.08c3.392 0.224 6.832 0.192 10.224 0h0.096zM407.264 584.64a70.416 70.416 0 0 1-25.248 4.656c-40.272 0-71.648-32.832-72.544-72.352 0.88-37.792 29.648-69.536 67.408-72.208l0.64 0.048c3.2 0.112 6.4 0.128 9.6-0.048l0.352 0.048a72.128 72.128 0 0 1 40.768 16.72 122.512 122.512 0 0 0-11.904 16.88c-19.2 32.704-21.664 71.84-9.072 106.256z m370.928-136.624c35.424 2.496 62.4 32.32 63.168 67.76-0.816 37.072-30.272 67.936-68.064 67.936-6.384 0-12.544-0.944-18.432-2.592l-0.288-0.096a112.416 112.416 0 0 0 21.344-61.392c0.08-0.864 0.112-1.76 0.128-2.688a114.544 114.544 0 0 0-22.88-65.984c4.88-1.536 10-2.528 15.248-2.944h0.112c3.184 0.16 6.4 0.16 9.6 0h0.064z m-484.32 132.096a67.28 67.28 0 0 1-21.584 3.6c-37.808 0-67.232-30.864-68.048-67.936 0.784-35.44 27.744-65.264 63.168-67.76h0.064c3.184 0.16 6.4 0.16 9.6 0h0.096a67.152 67.152 0 0 1 18.048 3.904 114.256 114.256 0 0 0-22.144 65.024 112.336 112.336 0 0 0 20.8 63.168z m306.256 7.456a89.248 89.248 0 0 1-6.64 9.472 87.872 87.872 0 0 1-53.184 31.904c-76.48 13.936-131.584-74.368-90.096-136.336l0.16 0.4c4.24-6.64 9.392-12.688 15.28-17.984a90.4 90.4 0 0 1 52.992-21.936l0.736 0.032c3.696 0.112 7.392 0.064 11.072-0.112l0.4 0.048a86.784 86.784 0 0 1 40.112 12.672h0.016a87.088 87.088 0 0 1 27.776 27.296c9.168 14.176 14.4 31.008 14.72 48.496a90.208 90.208 0 0 1-2.736 20.608h-0.016a90.912 90.912 0 0 1-10.592 25.44z"  horiz-adv-x="1024" />

    
    <glyph glyph-name="calendar" unicode="&#59074;" d="M645.472 665.728v-17.248h3.632v17.248c0 11.424 4.56 21.824 11.904 29.344a40.544 40.544 0 0 0 28.8 12.064c11.168 0 21.328-4.72 28.72-12.16 7.328-7.584 11.888-17.824 11.888-29.248h-0.064v-17.248h33.808c11.184 0 21.408-4.64 28.736-12.08 7.472-7.584 12.048-17.92 12.048-29.248v-505.12c0-11.328-4.576-21.728-12.048-29.168a40.24 40.24 0 0 0-28.736-12H275.632a39.968 39.968 0 0 0-28.672 12v0.064a41.392 41.392 0 0 0-11.824 29.12v505.12h-0.08c0 11.328 4.576 21.648 11.84 29.168a40.496 40.496 0 0 0 28.736 12.16h33.856v17.232c0 11.424 4.576 21.824 11.984 29.344v-0.096a40.224 40.224 0 0 0 28.736 12.16c11.168 0 21.328-4.72 28.64-12.16 7.408-7.52 11.968-17.824 11.968-29.248v-17.248h3.712v17.248h-0.064c0 11.424 4.48 21.824 11.888 29.344v-0.096a40.064 40.064 0 0 0 57.456 0.096c7.408-7.52 11.968-17.92 11.968-29.344v-17.248h3.488v17.248h-0.08c0 10.912 4.288 20.848 11.104 28.288l0.88 0.96a40.384 40.384 0 0 0 28.8 12.16c11.088 0 21.328-4.72 28.72-12.16 7.344-7.584 11.904-17.824 11.904-29.248v-17.248h3.472v17.248c0 11.424 4.592 21.728 11.92 29.248a40.672 40.672 0 0 0 28.8 12.16c11.152 0 21.328-4.64 28.72-12.064 7.408-7.616 12.032-17.92 12.032-29.344h-0.064z m-335.984-45.76h-33.856a12.64 12.64 0 0 1-8.864-3.68 12.944 12.944 0 0 1-3.632-9.12h-0.064v-505.12h0.064c0-3.536 1.376-6.784 3.632-9.056a12.8 12.8 0 0 1 8.864-3.696H764.16a12.96 12.96 0 0 1 9.072 3.76 12.896 12.896 0 0 1 3.632 8.992v505.12a13.2 13.2 0 0 1-3.632 9.04 12.96 12.96 0 0 1-9.072 3.776h-33.808v-12.832c0-11.424-4.48-21.728-11.824-29.168l-0.064 0.064a40.064 40.064 0 0 0-56.592-0.96l-0.864 0.896a41.456 41.456 0 0 0-11.904 29.168h0.08v12.832h-3.712v-12.832h0.064a41.28 41.28 0 0 0-12.032-29.168 40.48 40.48 0 0 0-28.72-12.096c-11.12 0-21.328 4.64-28.736 12.16a41.2 41.2 0 0 0-11.984 29.12v12.8h-3.472v-12.8c0-11.44-4.56-21.76-11.904-29.184v0.064c-7.392-7.52-17.632-12.16-28.72-12.16-11.184 0-21.328 4.64-28.736 12.16a41.2 41.2 0 0 0-11.968 29.12v12.8h-3.488v-12.8c0-10.928-4.192-20.8-11.088-28.24l-0.88-0.96a40.368 40.368 0 0 0-28.8-12.08c-11.104 0-21.328 4.64-28.72 12.096a41.392 41.392 0 0 0-11.84 29.168h0.08v12.832h-3.712v-12.832c0-11.36-4.56-21.664-11.888-29.104a40.064 40.064 0 0 0-56.592-0.96l-0.928 0.896a41.472 41.472 0 0 0-11.92 29.168v12.832z m422.4-91.872c7.328-7.376 11.952-17.76 11.952-29.12V165.12c0-11.36-4.64-21.664-12.032-29.12a40.32 40.32 0 0 0-28.64-12.128v0.064h-366.24a40.048 40.048 0 0 0-28.736 12.08 41.232 41.232 0 0 0-12.032 29.12V498.96c0 11.296 4.64 21.664 12.032 29.184a40.304 40.304 0 0 0 28.64 12.08h366.32c11.024 0 21.248-4.64 28.656-12.16h0.08z m-28.736-16.288H336.848a12.8 12.8 0 0 1-12.624-12.816V165.12c0-3.52 1.376-6.704 3.712-8.976a12.032 12.032 0 0 1 8.976-3.776h366.24a12.8 12.8 0 0 1 12.624 12.752V498.976a12.688 12.688 0 0 1-3.776 8.992v0.08a12.816 12.816 0 0 1-8.848 3.76z m-266.112-253.6v-74.88h-73.76v74.88h73.76z m118.096 0v-74.88h-73.728v74.88h73.728z m122.288 0v-74.88H603.68v74.88h73.744z m-240.384 108.608v-74.896h-73.76v74.88h73.76z m118.096 0v-74.896h-73.728v74.88h73.728z m122.288 0v-74.896H603.68v74.88h73.744zM437.04 481.44v-74.88h-73.76v74.88h73.76z m118.096 0v-74.88h-73.728v74.88h73.728z m122.288 0v-74.88H603.68v74.88h73.744z m-242.4 112.896a12.592 12.592 0 0 0-8.88 3.744 12.992 12.992 0 0 0-3.68 9.072h-0.08v58.56h0.08c0 3.552 1.44 6.8 3.68 9.152v0.08a12.608 12.608 0 0 0 8.864 3.76c3.552 0 6.736-1.552 8.992-3.84 2.256-2.352 3.712-5.6 3.712-9.136v-58.56a12.8 12.8 0 0 0-3.12-8.48l-0.592-0.608a12.592 12.592 0 0 0-8.992-3.744z m72.256 12.816a12.64 12.64 0 0 1 12.688-12.816 12.496 12.496 0 0 1 8.848 3.68l0.064 0.064h-0.064a13.008 13.008 0 0 1 3.696 9.072v58.56a13.488 13.488 0 0 1-3.696 9.232 12.4 12.4 0 0 1-8.848 3.76 12.768 12.768 0 0 1-9.008-3.904l-0.576-0.608a12.768 12.768 0 0 1-3.184-8.48v-58.56h0.08z m84.8 0c0-3.52 1.44-6.784 3.696-8.992 2.24-2.352 5.52-3.824 9.008-3.824a13.088 13.088 0 0 1 9.072 3.744 13.088 13.088 0 0 1 3.616 9.072h0.064v58.56h-0.064a13.552 13.552 0 0 1-3.616 9.152 13.296 13.296 0 0 1-9.072 3.84 12.736 12.736 0 0 1-8.944-3.904 12.912 12.912 0 0 1-3.76-9.072H592v-58.56h0.08z m85.104 0c0-3.52 1.44-6.784 3.616-9.072l0.528-0.512a12.528 12.528 0 0 1 8.48-3.232 12.864 12.864 0 0 1 8.928 3.68v0.064a12.944 12.944 0 0 1 3.616 9.072l0.064 58.56h-0.064a13.104 13.104 0 0 1-3.712 9.232 12.4 12.4 0 0 1-8.848 3.76 12.64 12.64 0 0 1-8.912-3.84 12.992 12.992 0 0 1-3.776-9.136v-58.56h0.064z m-326.912-12.816a12.624 12.624 0 0 1 8.848 3.68 13.104 13.104 0 0 1 3.712 9.136v58.56a13.28 13.28 0 0 1-3.712 9.232 12.576 12.576 0 0 1-8.912 3.76 12.64 12.64 0 0 1-8.944-3.76v-0.08a13.296 13.296 0 0 1-3.68-9.136v-58.56c0-3.552 1.44-6.8 3.68-9.088l0.528-0.512c2.24-1.984 5.12-3.232 8.48-3.232z"  horiz-adv-x="1024" />

    
    <glyph glyph-name="scale" unicode="&#59075;" d="M259.52 117.856h113.76v-34.448h-148.112v144.24h34.352v-109.792z m544.88-34.448H656.32v34.448h113.76v109.792h34.32v-144.24z m-105.168 103.84h-368.8V551.824h368.8v-364.544zM664.928 517.44H364.688v-295.776h300.24V517.424z m139.472-6.08H770.08v109.872h-113.76v34.384h148.08v-144.24z m-431.136 109.872H259.52v-109.856h-34.352v144.24h148.096v-34.4z"  horiz-adv-x="1024" />

    


  </font>
</defs>
</svg>
